16 Wishes (2010)

16 Wishes Další název

16 přání

Uložil
F@ny Hodnocení uloženo: 31.12.2010 rok: 2010
StaženoTento měsíc: 0 Celkem: 369 Naposledy: 17.4.2020
Další infoPočet CD: 1Velikost: 735 166 464 B typ titulků: srt FPS: 23,976
Verze pro 16.Wishes.2010.PROPER.DVDRip.XviD-VoMiT Další verze
Náhled zobrazit náhled
Poznámka
16.Wishes.2010.PROPER.DVDRip.XviD-VoMiT.avi
Format : AVI
Format/Info : Audio Video Interleave
File size : 701 MiB
Duration : 1h 30mn
Overall bit rate : 1 088 Kbps
Writing application : VirtualDubMod 1.5.10.2 (build 2540/release)
Writing library : VirtualDubMod build 2540/release
Video #0
ID : 0
Format : MPEG-4 Visual
Format profile : AdvancedSimple@L5
Format settings, BVOP : Yes
Format settings, QPel : No
Format settings, GMC : No warppoints
Format settings, Matrix : Default (H.263)
Codec ID : XVID
Codec ID/Hint : XviD
Duration : 1h 30mn
Bit rate : 915 Kbps
Width : 640 pixels
Height : 352 pixels
Display aspect ratio : 16:9
Frame rate : 23.976 fps
Resolution : 24 bits
Colorimetry : 4:2:0
Scan type : Progressive
Bits/(Pixel*Frame) : 0.169
Stream size : 590 MiB (84%)
Writing library : XviD 1.0.1 (UTC 2004-06-05)
Audio #1
ID : 1
Format : MPEG Audio
Format version : Version 1
Format profile : Layer 3
Codec ID : 55
Codec ID/Hint : MP3
Duration : 1h 30mn
Bit rate mode : Variable
Bit rate : 160 Kbps
Channel(s) : 2 channels
Sampling rate : 48.0 KHz
Resolution : 16 bits
Stream size : 103 MiB (15%)
Alignment : Aligned on interleaves
Interleave, duration : 24 ms (0.58 video frame)
Interleave, preload duration : 115 ms
Writing library : LAME3.90.
Encoding settings : -m j -V 4 -q 2 -lowpass 18 --abr 160
IMDB.com

Titulky 16 Wishes ke stažení

16 Wishes (CD 1) 735 166 464 B
Stáhnout v jednom archivu 16 Wishes

Historie 16 Wishes

Zatím žádná historie ani nové verze těchto titulků

RECENZE 16 Wishes

1.1.2011 20:25 host000 odpovědět
Dikes sedi na 16 Wishes (2010) DvdRip [Xvid] {1337x}-X

Příspěvek:
Můžete připojit přílohu do velikosti 1 MB


Registrace
Pokročilé hledání
VZKAZY Z FÓRA
Tenhleten seriál by mohl být docela zajímavý.
Já nejsem překladatel a určitě se tu najde někdo daleko fundovanější. Zkus se třeba podívat na progr
jacku, lol tvl co po mně furt jdeš? :-D Všiml sis, že si všímám jen filmů, které mě zajímají a necpu
na beta.titulky.com tom jde jednodušeTo by byla ale škoda. :-(Poradíš jak se to dělá? Děkuji.Předem moc děkuji.
Lol nechceš tu dělat moda ? nebo aspon vypomáhat třídit určité rozpracované sekce, třeba i popohánět
Cough reklamyy ?
Pohodička, klídeček... dávám si 2díly naráz hlavně že jsou ve 2160p ;)
Jde prosím znovu otevřít požadavek na překlad seriálu - The Marvelous Mrs. Maisel. Stále totiž chybí
Tak korekce 5. dílu dokončena.
Už to čeká jen na nahrání...
titulky lze naklikat do cloudu a stáhnout pak jeden balík. ;)
Kdyby alespoň šlo stáhnout celou sérii v jedné složce, jako na Ed**. cz :)
Nezobralo smajlíka hm zaujímavé. Paráda, že sa do toho púšťaš.
Netuším. Mé předchozí titulky mi vždy schválili rychle. Asi to zapadlo. Snad do dvou týdnů to bude s
Vypadá to, že se do toho nikdo nepustí, tak si to zapíšu, sám jsem na to zvědavý.
Dakujem ,velmi si toho vážim
Omlouvám se.. díky za upozornění.
Přepsal jsem se v názvu filmu.
Ve svém příspěvku píši o filmu
Dobré hodnocení, skvělí herci, proč se do toho nikdo nepustil?
Super, děkuji! :)
Naprostý souhlas, ono ani těch 25 titulků pro prémiové účty na den není o moc lepší.
Stáhnout titul
Proč nejsou schválené? Teď jsem si to s nimi dala, pár vět kostrbatých, ale v pohodě. Díky za překla
Tady jsi ve špatným požadavku. :-D Let it Snow se překládá https://www.titulky.com/?Stat=5&item=1917
Od 16.9. čeká na schválení 12 díl, to je už dost dlouho, je tam nějaký problém?
Ten těšing jsem se rozhodl zpříjemnit objevem mezi tvými titulky : Shetlandem :-) ;-)
Let.it.Snow.2020.1080p.WEB-DL.DD5.1.H.264-EVO.mkv,
obsahuje anglické titulky...
tenhle film je na
Na bluray stačí posunúť o -20sekúnd a sedia :)
Zajímavý dokument, díky za titulky.